#TITLE:happy happy;
#SUBTITLE:;
#ARTIST:宋宝岚;
#TITLETRANSLIT:;
#SUBTITLETRANSLIT:;
#ARTISTTRANSLIT:;
#CREDIT:;
#BANNER:happy happy_logo.jpg;
#BACKGROUND:happy happy_bg.jpg;
#LYRICSPATH:;
#CDTITLE:Lan.png;
#MUSIC:happy happy.mp3;
#OFFSET:-0.040;
#SAMPLESTART:100.000;
#SAMPLELENGTH:12.000;
#SELECTABLE:YES;
#BPMS:0.000=155.000;
#STOPS:;
#BGCHANGES:;
// cache tags:
#FIRSTBEAT:40.000;
#LASTBEAT:311.000;
#SONGFILENAME:Songs/lan sky/happy happy/happy happy.sm;
#HASMUSIC:1;
#HASBANNER:1;
#MUSICLENGTH:122.218;
// end cache tags

//---------------dance-single - sky----------------
#NOTES:
     dance-single:
     sky:
     Hard:
     8:
     0.678,0.922,0.605,0.205,0.213,477.000,74.000,25.000,0.000,8.000:

0000
0000
0000
0000
,
0000
0000
0000
0000
,
0000
0000
0000
0000
,
0000
0000
0000
0000
,
0000
0000
0000
0000
,
0000
0000
0000
0000
,
0000
0000
0000
0000
,
0000
0000
0000
0000
,
0000
0000
0000
0000
,
0000
0000
0000
0000
,
1100
0001
0010
0100
0011
0100
1000
0010
,
0101
0000
0010
0000
1000
0000
0100
0010
0100
0000
0001
0000
0010
0000
0001
0000
,
0110
0000
0010
0000
0001
0000
0010
0100
1000
0000
0100
0000
0010
0000
0001
0000
,
1010
0000
0100
0000
0010
0000
0001
0100
0001
0000
1000
0000
0010
0000
0100
0000
,
1011
0010
0100
0001
0110
1000
0001
1000
,
0011
0100
1000
0100
1001
0010
0100
0001
,
1000
0100
0010
0001
0100
0001
0010
1000
0010
0001
0010
0100
1000
0001
0010
0100
,
1000
0000
0001
0100
0010
0000
0001
0000
1000
0000
0000
0000
1101
0000
0000
0000
,
0110
0000
0000
0000
0011
0000
0000
0000
1000
0100
0010
0000
1000
0001
0100
0000
,
0011
0001
1001
0010
0100
0010
1010
0001
,
0100
0010
0100
0001
0010
0100
0010
0001
,
1010
0000
1001
0000
1000
0100
0010
0001
,
0110
0000
0000
0000
0101
0000
0000
0000
0010
1000
0100
0000
0010
0100
0010
0000
,
1000
0000
0100
0000
0010
0000
0001
0000
1000
0010
1000
0000
0010
0100
0001
0000
,
0100
1000
0110
0010
1010
0001
0110
0001
,
1000
0000
0001
0000
0010
0000
0100
0000
0001
1000
0100
0010
0001
0010
0100
1000
,
0011
0000
0000
0000
0101
0000
0000
0000
1000
0100
0010
0000
0010
0100
1000
0000
,
0110
0010
0011
0100
1001
0010
1100
1000
,
0001
0100
0010
0001
0100
0010
0100
1000
,
0110
0000
1010
0000
1000
0100
0010
0001
,
0100
0000
0000
0000
0101
0000
0000
0000
0010
0001
0010
0000
1000
0010
1000
0000
,
1000
0000
0100
0000
0010
0000
0001
0000
0010
0100
0010
0001
0100
0010
0001
0000
,
0010
0000
0100
0000
0011
0000
1000
0000
0010
0100
0010
0000
1000
0100
0010
0001
,
1000
0100
1000
0000
0010
0100
0010
0000
1000
0100
0010
0100
1000
0100
0010
0001
,
1101
0101
0110
0011
,
1010
0000
0001
0010
1000
0100
0010
0000
,
1010
0011
0110
0101
,
1010
0000
0100
0001
1000
0100
0010
0000
,
1100
1010
0110
0101
,
1000
0001
0010
0001
0100
0010
0001
0000
,
0110
1100
0101
1010
,
1000
0100
0010
0001
0100
0010
0100
1000
,
1000
0001
0000
1000
0100
0010
0100
0010
,
0002
0000
0000
0000
1000
0000
0000
0000
0010
0000
0100
0000
1000
0000
0000
0003
,
0020
0000
0000
0000
1000
0000
0100
0000
0001
0000
0100
0000
1000
0000
0000
0030
,
2000
0000
0000
0000
0001
0000
0000
0000
0010
0000
0000
0000
0100
0000
0001
3000
,
0200
0000
0000
0000
0010
0000
0001
0000
1000
0000
0010
0000
0001
0000
0000
0300
,
2000
0000
0000
0000
0010
0000
0000
0000
0001
0000
0100
0000
0001
0000
0100
3000
,
0020
0000
0000
0000
1000
0000
0000
0000
0100
0000
0001
0000
1000
0000
0000
0030
,
2000
0000
0000
0000
0100
0000
0000
0000
0010
0000
0001
0000
0100
0000
0001
3000
,
0002
0000
1000
0000
0000
0000
1000
0000
0010
0000
0100
0000
1000
0000
0010
0003
,
0200
0000
0000
0000
0010
0000
0000
0000
0001
0000
1000
0000
0001
0000
0000
0300
,
0020
0000
0000
0000
0001
0000
0000
0000
0100
0000
1000
0000
0001
0000
0000
0030
,
2000
0000
0000
0000
0010
0000
0000
0000
0100
0000
0000
0000
0010
0000
0000
3000
,
0020
0000
0000
0000
0100
0000
0000
0000
1000
0000
0100
0000
0001
0000
0000
0030
,
2000
0000
0000
0000
0001
0000
0000
0000
0010
0000
0100
0000
0010
0000
0000
3000
,
0002
0000
0000
0000
1000
0000
0000
0000
0100
0000
0010
0000
0100
0000
0010
0003
,
0200
0000
0000
0000
0010
0000
0000
0000
0001
0000
1000
0000
0010
0000
0000
0300
,
2000
0000
0000
0000
0100
0000
0000
0000
0010
0000
0000
0000
0001
0000
0000
3000
,
0000
0000
0001
0100
0001
0000
0010
0000
1000
0100
1000
0010
0100
0010
0100
0010
,
1001
1001
0101
0101
,
1000
0001
0010
0100
1000
0100
0010
0001
,
1010
1010
1100
1100
,
1000
0001
0010
0001
0100
0010
0100
0001
,
2000
0000
0000
0000
0110
0000
0000
3000
0002
0000
0000
0000
0110
0000
0000
0003
,
0100
0001
0010
0100
1000
0010
0001
0000
,
0200
0000
0000
0000
1010
0000
0000
0300
0020
0000
0000
0000
1001
0000
0000
0030
,
2000
0000
0000
0000
0100
0000
0000
0000
0001
0000
0010
0000
0001
0000
0000
3000
,
0101
0101
0011
1001
,
1000
0001
0010
0100
1000
0100
0010
0001
,
1010
1010
1100
1001
,
1000
0001
0010
0001
0100
0010
0100
0001
,
2000
0000
0000
0000
0100
0000
0010
3000
0002
0000
0100
0000
0010
0000
0100
0003
,
2000
0000
0001
0000
0010
0000
0100
0000
0010
0000
0001
0000
0100
0000
0000
3000
,
0110
0000
0101
0000
0010
1000
0100
0010
,
0002
0000
0000
0000
1000
0000
0000
0000
0010
0000
0000
0000
0100
0000
0000
0003
,
0100
0010
0001
0010
0100
0010
0100
1000
0001
0010
0100
1000
0100
0010
0001
0100
,
0001
0000
0000
0010
0100
0000
0001
0000
1100
0000
0000
0000
1011
0000
0000
0000
;
